最新消息:网盘下载利器JDownloader--|--发布资讯--|--站务--|--解压出错.密码问题--

Robert Pfund “Differentiation, Examination and Treatment of Movement Disorders in Manual Therapy” (BOOK + DVD) [repost]

其他教程 wyy 0评论

Differentiation, Examination and Treatment of Movement Disorders in Manual Therapy

(.mov) in an interactive shell | English | ISO + PDF workbook | 340 x 280 | SVQ1 ~329 Kbps | 12.5 fps

ADPCM | 176.4 kbps | 22.05 KHz | 1 channel | ~6 hours | 1.87 GB

Genre: Video Tutorial / Manual Diagnosis and Therapy, Kinesiology, Osteopathy

 

This innovative resource presents the principles of manual therapy examination and management, paired with a CD-ROM that contains high-quality video clips of procedures. This multimedia approach explains and demonstrates both the underlying clinical reasoning and the technical execution of key manual therapy procedures. The book begins with discussions of the key concepts related pain mechanisms and focuses on procedures and associated reasoning that are appropriate for treating pain states that are predominantly nocioceptive - a critical distinction not often addressed in other books. Its focus includes joint, neural and muscle/soft tissue system examination and management procedures, grounded in biomedical reasoning. Patient self-management strategies are provided for long-term success.

Successfully integrates principles of manual therapy examination and management with over 500 superb video images of procedures.
Emphasis on treating nocioceptive pain states encourages therapists to appreciate the significant impact psychosocial circumstances can have on a patient's symptoms.
Multidimensional approach to manual therapy incorporates concepts and procedures from different disciplines, guided by clinical reasoning.
Coverage includes procedures for examining and managing conditions associated with joint, neural, and muscle/soft tissue systems.
Biomedical theory is presented, with detailed discussions of clinical implications followed by differentiating physical examination procedures, to strengthen clinical reasoning skills.
Specific self-management procedures are provided for the specific impairments identified through differential examination, with video presentations of these procedures on CD-ROM.

To function properly, your computer should support at least an 800 x 600 pixels screen resolution, 256 colors, 128 MB RAM, and operate on the Windows 98, 2000, NT, ME or XP operating system.

1. If your system does not support Autorun, click on PfundZahnd.exe to begin.

2. QuickTime player can be installed from the software folder of the DVD.

MediaInfo

General
Complete name : 045.mov
Format : QuickTime
Format/Info : Original Apple specifications
File size : 2.14 MiB
Duration : 41s 903ms
Overall bit rate : 427 Kbps
Movie name : Pfund / Zahnd
Movie name/More : Schmerzbehandlung
Encoded date : UTC 2005-03-02 15:18:30
Tagged date : UTC 2005-03-02 15:18:30
Writing library : Apple QuickTime
Copyright : Georg - Thieme Verlag
Video #1
ID : 1
Format : Sorenson 1
Codec ID : SVQ1
Codec ID/Info : Sorenson Media Video 1 (Apple QuickTime 3)
Duration : 41s 903ms
Bit rate : 329 Kbps
Width : 340 pixels
Height : 280 pixels
Display aspect ratio : 1.214
Frame rate mode : Constant
Frame rate : 12.500 fps
Bits/(Pixel*Frame) : 0.276
Stream size : 1.64 MiB (77%)
Language : English
Encoded date : UTC 2000-08-26 08:26:38
Tagged date : UTC 2005-03-02 15:18:30
Material_Duration : 42720
Material_StreamSize : 1752480
Material_FrameCount : 534
Audio #3
ID : 3
Format : ADPCM
Format settings, Firm : IMA
Codec ID : ima4
Duration : 40s 913ms
Bit rate mode : Constant
Bit rate : 176.4 Kbps
Channel(s) : 1 channel
Sampling rate : 22.05 KHz
Bit depth : 16 bits
Stream size : 881 KiB (40%)
Language : English
Encoded date : UTC 2004-12-28 18:09:05
Tagged date : UTC 2005-03-02 15:18:30
Screenshots

 

 

 

 

 


download:
Differentiation, Examination & Treatment of Movement Disorders in Manual Therapy.part5.rar
Differentiation, Examination & Treatment of Movement Disorders in Manual Therapy.part4.rar
Differentiation, Examination & Treatment of Movement Disorders in Manual Therapy.part3.rar
Differentiation, Examination & Treatment of Movement Disorders in Manual Therapy.part1.rar
Differentiation, Examination & Treatment of Movement Disorders in Manual Therapy.part2.rar

VIP会员如果需要请留言即传入百度盘 详细见:http://www.0daydown.com/vip

 

您必须 登录 才能发表评论!

网友最新评论 (1)

  1. 百度链接没有
    xuxuxu2年前 (2014-12-29)