最新消息:网盘下载利器JDownloader--|--发布资讯--|--解压出错.密码问题--|--最近盗号猖獗,弱密码的会员尽快改为复杂密码,不要跟别的网站密码一样.

Fleetwood Mac – Fleetwood Mac (1975) (2018, Super Deluxe Edition Box Set)

Music/音乐 Music 0评论


EAC | Flac (Image) + Cue + Log & MP3 CBR 320Kbps
3CD | Reprise Records, R2 559454 | 1363, 498 MB | Scans (png) -> 662 MB
DVD5: NTSC 16:9 (720x480) VBR | LinearPCM, 2 ch -> 2.17 GB
Classic Rock, Pop Rock

LEETWOOD MAC: DELUXE EDITION is packaged in a 12 x 12 embossed sleeve with rare and unseen photos along with in-depth liner notes written by David Wild featuring new interviews with all the band members. Features a newly remastered version of the original album along with single mixes for “Over My Head,” “Rhiannon,” “Say You Love Me.” Also included is a second disc with an alternate version of the complete album comprised of unreleased outtakes for each album track, plus several unreleased live performances from 1976. Exclusive to the deluxe edition is a third disc filled with even more unreleased live recordings highlighted by stellar performances of “Landslide,” “Oh Well,” “Station Man,” “World Turning,” among others.
FLEETWOOD MAC: DELUXE EDITION also comes with a DVD featuring 5.1 Surround Sound and high-resolution 24/96 Stereo Audio mixes of the original album and four single mixes. Completing the set is an LP version of the original album pressed on 180-gram vinyl.

Fleetwood Mac - Fleetwood Mac (1975) (2018, Super Deluxe Edition Box Set)

Tracklist CD1:
01 Monday Morning
02 Warm Ways
03 Blue Letter
04 Rhiannon
05 Over My Head
06 Crystal
07 Say You Love Me
08 Landslide
09 World Turning
10 Sugar Daddy
11 I'm So Afraid
12 Over My Head (Single Version)
13 Rhiannon (Will You Ever Win) (Single Version)
14 Say You Love Me (Single Version)
15 Blue Letter (Single Version)

Exact Audio Copy V1.3 from 2. September 2016

EAC extraction logfile from 28. January 2018, 10:15

Fleetwood Mac / Fleetwood Mac CD1

Used drive : PLEXTOR BD-R PX-B950SA Adapter: 1 ID: 1

Read mode : Secure
Utilize accurate stream : Yes
Defeat audio cache : Yes
Make use of C2 pointers : No

Read offset correction : 6
Overread into Lead-In and Lead-Out : No
Fill up missing offset samples with silence : Yes
Delete leading and trailing silent blocks : No
Null samples used in CRC calculations : Yes
Used interface : Native Win32 interface for Win NT & 2000

Used output format : Internal WAV Routines
Sample format : 44.100 Hz; 16 Bit; Stereo

TOC of the extracted CD

Track | Start | Length | Start sector | End sector
––––––––––––––––––––––––––––-
1 | 0:00.00 | 2:48.39 | 0 | 12638
2 | 2:48.39 | 3:53.38 | 12639 | 30151
3 | 6:42.02 | 2:40.59 | 30152 | 42210
4 | 9:22.61 | 4:10.27 | 42211 | 60987
5 | 13:33.13 | 3:38.00 | 60988 | 77337
6 | 17:11.13 | 5:11.04 | 77338 | 100666
7 | 22:22.17 | 4:09.68 | 100667 | 119409
8 | 26:32.10 | 3:19.16 | 119410 | 134350
9 | 29:51.26 | 4:24.55 | 134351 | 154205
10 | 34:16.06 | 4:09.60 | 154206 | 172940
11 | 38:25.66 | 4:30.11 | 172941 | 193201
12 | 42:56.02 | 3:10.09 | 193202 | 207460
13 | 46:06.11 | 3:48.24 | 207461 | 224584
14 | 49:54.35 | 4:03.04 | 224585 | 242813
15 | 53:57.39 | 2:42.03 | 242814 | 254966

Range status and errors

Selected range

Filename C:\Users\Alex\Desktop\ALLexxess\Fleetwood Mac\1975 Fleetwood Mac (5-Disc Box Set Reprise Records 2018)\CD1\Fleetwood Mac - Fleetwood Mac CD1.wav

Peak level 97.6 %
Extraction speed 6.0 X
Range quality 100.0 %
Test CRC C9AD6BBA
Copy CRC C9AD6BBA
Copy OK

No errors occurred

AccurateRip summary

Track 1 not present in database
Track 2 not present in database
Track 3 not present in database
Track 4 not present in database
Track 5 not present in database
Track 6 not present in database
Track 7 not present in database
Track 8 not present in database
Track 9 not present in database
Track 10 not present in database
Track 11 not present in database
Track 12 not present in database
Track 13 not present in database
Track 14 not present in database
Track 15 not present in database

None of the tracks are present in the AccurateRip database

End of status report

–– CUETools DB Plugin V2.1.6

[CTDB TOCID: szB7NRgIh50Ul9q64nzKBbTW4jE-] found
Submit result: szB7NRgIh50Ul9q64nzKBbTW4jE- has been confirmed
Track | CTDB Status
1 | (13/14) Accurately ripped, or (1/14) differs in 24 samples @02:01:72,02:48:38-02:48:39
2 | (13/14) Accurately ripped, or (1/14) differs in 282 samples @00:00:00,03:53:37-03:53:38
3 | (13/14) Accurately ripped, or (1/14) differs in 326 samples @00:00:00,02:40:58-02:40:59
4 | (13/14) Accurately ripped, or (1/14) differs in 526 samples @00:00:00,04:10:26-04:10:27
5 | (13/14) Accurately ripped, or (1/14) differs in 400 samples @00:00:00,03:37:74-03:38:00
6 | (13/14) Accurately ripped, or (1/14) differs in 327 samples @00:00:00,05:11:03-05:11:04
7 | (13/14) Accurately ripped, or (1/14) differs in 313 samples @00:00:00,04:09:67-04:09:68
8 | (13/14) Accurately ripped, or (1/14) differs in 379 samples @00:00:00,03:19:15-03:19:16
9 | (13/14) Accurately ripped, or (1/14) differs in 292 samples @00:00:00,04:24:54-04:24:55
10 | (13/14) Accurately ripped, or (1/14) differs in 422 samples @00:00:00,04:09:59-04:09:60
11 | (13/14) Accurately ripped, or (1/14) differs in 292 samples @00:00:00,04:30:10-04:30:11
12 | (13/14) Accurately ripped, or (1/14) differs in 316 samples @00:00:00,03:10:08-03:10:09
13 | (13/14) Accurately ripped, or (1/14) differs in 322 samples @00:00:00,03:48:23-03:48:24
14 | (13/14) Accurately ripped, or (1/14) differs in 308 samples @00:00:00,04:03:03-04:03:04
15 | (13/14) Accurately ripped, or (1/14) differs in 283 samples @00:00:00

==== Log checksum CF07F3702D5D515B2AEFC760506F438026F132A17DCEE69B5E2A63EBBD2DBBF5 ====

Fleetwood Mac - Fleetwood Mac (1975) (2018, Super Deluxe Edition Box Set)

Tracklist CD2:
01 Monday Morning (Early Take)
02 Warm Ways (Early Take)
03 Blue Letter (Early Take)
04 Rhiannon (Early Take)
05 Over My Head (Early Take)
06 Crystal (Early Version)
07 Say You Love Me (Early Version)
08 Landslide (Early Version)
09 World Turning (Early Version)
10 Sugar Daddy (Early Take)
11 I'm So Afraid (Early Version)
12 Over My Head (Live)
13 Rhiannon (Live)
14 Why (Live)
15 World Turning (Live)
16 Jam #2
17 I'm So Afraid (Early Take Instrumental)

Exact Audio Copy V1.3 from 2. September 2016

EAC extraction logfile from 28. January 2018, 9:43

Fleetwood Mac / Fleetwood Mac CD2

Used drive : PLEXTOR BD-R PX-B950SA Adapter: 1 ID: 1

Read mode : Secure
Utilize accurate stream : Yes
Defeat audio cache : Yes
Make use of C2 pointers : No

Read offset correction : 6
Overread into Lead-In and Lead-Out : No
Fill up missing offset samples with silence : Yes
Delete leading and trailing silent blocks : No
Null samples used in CRC calculations : Yes
Used interface : Native Win32 interface for Win NT & 2000

Used output format : Internal WAV Routines
Sample format : 44.100 Hz; 16 Bit; Stereo

TOC of the extracted CD

Track | Start | Length | Start sector | End sector
––––––––––––––––––––––––––––-
1 | 0:00.00 | 2:50.26 | 0 | 12775
2 | 2:50.26 | 3:53.59 | 12776 | 30309
3 | 6:44.10 | 2:49.25 | 30310 | 43009
4 | 9:33.35 | 4:36.05 | 43010 | 63714
5 | 14:09.40 | 2:57.68 | 63715 | 77057
6 | 17:07.33 | 4:05.15 | 77058 | 95447
7 | 21:12.48 | 4:18.33 | 95448 | 114830
8 | 25:31.06 | 3:18.13 | 114831 | 129693
9 | 28:49.19 | 5:39.43 | 129694 | 155161
10 | 34:28.62 | 4:06.46 | 155162 | 173657
11 | 38:35.33 | 4:48.50 | 173658 | 195307
12 | 43:24.08 | 3:03.17 | 195308 | 209049
13 | 46:27.25 | 6:36.66 | 209050 | 238815
14 | 53:04.16 | 4:00.24 | 238816 | 256839
15 | 57:04.40 | 5:18.12 | 256840 | 280701
16 | 62:22.52 | 5:35.40 | 280702 | 305866
17 | 67:58.17 | 7:12.60 | 305867 | 338326

Range status and errors

Selected range

Filename C:\Users\Alex\Desktop\ALLexxess\Fleetwood Mac\1975 Fleetwood Mac (5-Disc Box Set Reprise Records 2018)\CD2\Fleetwood Mac - Fleetwood Mac CD2.wav

Peak level 100.0 %
Extraction speed 8.0 X
Range quality 99.9 %
Test CRC F3E10A58
Copy CRC F3E10A58
Copy OK

No errors occurred

AccurateRip summary

Track 1 not present in database
Track 2 not present in database
Track 3 not present in database
Track 4 not present in database
Track 5 not present in database
Track 6 not present in database
Track 7 not present in database
Track 8 not present in database
Track 9 not present in database
Track 10 not present in database
Track 11 not present in database
Track 12 not present in database
Track 13 not present in database
Track 14 not present in database
Track 15 not present in database
Track 16 not present in database
Track 17 not present in database

None of the tracks are present in the AccurateRip database

End of status report

–– CUETools DB Plugin V2.1.6

[CTDB TOCID: OgYX0xXEFfbbmlFp8Z.bJwT88T8-] found
Submit result: OgYX0xXEFfbbmlFp8Z.bJwT88T8- has been confirmed
Track | CTDB Status
1 | (15/15) Accurately ripped
2 | (15/15) Accurately ripped
3 | (15/15) Accurately ripped
4 | (15/15) Accurately ripped
5 | (15/15) Accurately ripped
6 | (15/15) Accurately ripped
7 | (15/15) Accurately ripped
8 | (15/15) Accurately ripped
9 | (15/15) Accurately ripped
10 | (15/15) Accurately ripped
11 | (15/15) Accurately ripped
12 | (15/15) Accurately ripped
13 | (15/15) Accurately ripped
14 | (15/15) Accurately ripped
15 | (15/15) Accurately ripped
16 | (15/15) Accurately ripped
17 | (14/15) Accurately ripped

==== Log checksum 7DFEDB9BBD6B089FCB4A85FA4F05FACFA436F7B9EAE98BAA4069A6D2ACAD8756 ====

Fleetwood Mac - Fleetwood Mac (1975) (2018, Super Deluxe Edition Box Set)

Tracklist CD3:
Live From The Tour:
01 Get Like You Used To Be
02 Station Man
03 Spare Me A Little
04 Rhiannon
05 Why
06 Landslide
07 Over My Head
08 I'm So Afraid
09 Oh Wel
10 The Green Manalishi (With The Two Pronged Crown)
11 World Turning
12 Blue Letter
13 Don't Let Me Down Again
14 Hypnotized

Exact Audio Copy V1.3 from 2. September 2016

EAC extraction logfile from 27. January 2018, 9:41

Fleetwood Mac / Fleetwood Mac CD3

Used drive : PLEXTOR BD-R PX-B950SA Adapter: 1 ID: 1

Read mode : Secure
Utilize accurate stream : Yes
Defeat audio cache : Yes
Make use of C2 pointers : No

Read offset correction : 6
Overread into Lead-In and Lead-Out : No
Fill up missing offset samples with silence : Yes
Delete leading and trailing silent blocks : No
Null samples used in CRC calculations : Yes
Used interface : Native Win32 interface for Win NT & 2000

Used output format : Internal WAV Routines
Sample format : 44.100 Hz; 16 Bit; Stereo

TOC of the extracted CD

Track | Start | Length | Start sector | End sector
––––––––––––––––––––––––––––-
1 | 0:00.00 | 4:24.32 | 0 | 19831
2 | 4:24.32 | 6:18.06 | 19832 | 48187
3 | 10:42.38 | 4:30.10 | 48188 | 68447
4 | 15:12.48 | 7:57.02 | 68448 | 104224
5 | 23:09.50 | 4:22.36 | 104225 | 123910
6 | 27:32.11 | 3:54.63 | 123911 | 141523
7 | 31:26.74 | 3:23.50 | 141524 | 156798
8 | 34:50.49 | 5:46.72 | 156799 | 182820
9 | 40:37.46 | 2:59.53 | 182821 | 196298
10 | 43:37.24 | 5:30.59 | 196299 | 221107
11 | 49:08.08 | 8:34.53 | 221108 | 259710
12 | 57:42.61 | 3:39.23 | 259711 | 276158
13 | 61:22.09 | 4:05.62 | 276159 | 294595
14 | 65:27.71 | 9:46.28 | 294596 | 338573

Range status and errors

Selected range

Filename C:\Users\Alex\Desktop\ALLexxess\Fleetwood Mac\1975 Fleetwood Mac (5-Disc Box Set Reprise Records 2018)\CD3\Fleetwood Mac - Fleetwood Mac CD3.wav

Peak level 100.0 %
Extraction speed 8.3 X
Range quality 100.0 %
Test CRC 3E89A53A
Copy CRC 3E89A53A
Copy OK

No errors occurred

AccurateRip summary

Track 1 not present in database
Track 2 not present in database
Track 3 not present in database
Track 4 not present in database
Track 5 not present in database
Track 6 not present in database
Track 7 not present in database
Track 8 not present in database
Track 9 not present in database
Track 10 not present in database
Track 11 not present in database
Track 12 not present in database
Track 13 not present in database
Track 14 not present in database

None of the tracks are present in the AccurateRip database

End of status report

–– CUETools DB Plugin V2.1.6

[CTDB TOCID: NU4e9ciSEf9HmcQQXPwFWAOCc0w-] found
Submit result: NU4e9ciSEf9HmcQQXPwFWAOCc0w- has been confirmed
Track | CTDB Status
1 | (9/9) Accurately ripped
2 | (9/9) Accurately ripped
3 | (9/9) Accurately ripped
4 | (9/9) Accurately ripped
5 | (9/9) Accurately ripped
6 | (9/9) Accurately ripped
7 | (9/9) Accurately ripped
8 | (9/9) Accurately ripped
9 | (9/9) Accurately ripped
10 | (9/9) Accurately ripped
11 | (9/9) Accurately ripped
12 | (9/9) Accurately ripped
13 | (9/9) Accurately ripped
14 | (9/9) Accurately ripped

==== Log checksum 5EF522F5DEFFBC2B158B4D48006AEE4EEC41AE486DA60065F740711CB70A3D47 ====

Fleetwood Mac - Fleetwood Mac (1975) (2018, Super Deluxe Edition Box Set)

Tracklist DVD:
5.1 Surround & 24/96 Stereo Mix
01 Monday Morning
02 Warm Ways
03 Blue Letter
04 Rhiannon
05 Over My Head
06 Crystal
07 Say You Love Me
08 Landslide
09 World Turning
10 Sugar Daddy
11 I'm So Afraid

The Singles
PCM 24/96 High Resolution Stereo
12 Over My Head (Single Version)
13 Rhiannon (Will You Ever Win) (Single Version)
14 Say You Love Me (Single Version)
15 Blue Letter (Single Version)


Download nitroflare
http://nitroflare.com/view/98C0F33C46FD2D7/_FM75FM-DVD.part1.rar
http://nitroflare.com/view/990D8A787EF7CA8/_FM75FM-DVD.part2.rar
http://nitroflare.com/view/440A5A56062AEB2/_FM75FM-DVD.part3.rar
http://nitroflare.com/view/D376DCDFF9A1968/_FM75FM-DVD.part4.rar
http://nitroflare.com/view/61839AAB3129D3A/_FM75FM-flac.part1.rar
http://nitroflare.com/view/919F570A3E5D9F5/_FM75FM-flac.part2.rar
http://nitroflare.com/view/B5F67A28D33A323/_FM75FM-flac.part3.rar
http://nitroflare.com/view/1C9F9FB52270D2D/_FM75FM-mp3-320.rar
http://nitroflare.com/view/3C310655B15049A/_FM75FM-Scans.rar

您必须 登录 才能发表评论!